website statistics
Star.Wars.The.Bad.Batch.S01E07.WEBRip.x264-ION10 > 외국티비 > 인터넷의 시작 더토렌트
홈 > 티비 > 외국티비
외국티비
 [구글검색] 구글에서 더토렌트 검색 - 구글에서 토렌트를 검색하실 때에 검색어 뒤에 더토렌트를 꼭 붙여서 검색하세요.     더토렌트에서 광고중인 웹에 문제가 있다면 상단에 나와 있는 운영자 이메일로 연락 주십시오.     사용자님의 다운로드가 완료될 때까지 저희가 함께하겠습니다. 편안하고 즐거운 시간 되십시오.

웹하드 파일썬

Star.Wars.The.Bad.Batch.S01E07.WEBRip.x264-ION10
  • 파일 설명:     https://discord.gg/a4ee7bF and start your journey to find the Trove... good luck Description: https://www.imdb.com/title/tt12708542/ Star.Wars.The.Bad.Batch.S01E07.WEBRip.x264-ION10 Upload provided by The Galactic Republic Join us @ https://discord.gg/a4ee7bF and start your journey to find the Trove... good luck Description: https://www.imdb.com/title/tt12708542/ MEDIA INFO: General Format : MPEG-4 Format profile : Base Media Codec ID : isom (isom/iso2/avc1/mp41) File size : 237 MiB Duration : 25 min 0 s Overall bit rate : 1 327 kb/s Movie name : Star.Wars.The.Bad.Batch.S01E07.WEBRip.x264-ION10 Description : As they traverse a decommissioned medical facility, the Batch encounter an unexpected threat. Encoded date : UTC 2021-06-11 08:52:35 Tagged date : UTC 2021-06-11 08:52:35 Writing application : Lavf58.0.101 Comment : Star.Wars.The.Bad.Batch.S01E07.WEBRip.x264-ION10 Video ID : 1 Format : AVC Format/Info : Advanced Video Codec Format profile : [email protected] Format settings : CABAC / 5 Ref Frames Format settings, CABAC : Yes Format settings, Reference frames : 5 frames Codec ID : avc1 Codec ID/Info : Advanced Video Coding Duration : 25 min 0 s Bit rate : 1 100 kb/s Width : 720 pixels Height : 306 pixels Display aspect ratio : 2.35:1 Frame rate mode : Constant Frame rate : 23.976 (24000/1001) FPS Color space : YUV Chroma subsampling : 4:2:0 Bit depth : 8 bits Scan type : Progressive Bits/(Pixel*Frame) : 0.208 Stream size : 191 MiB (80%) Title : Star.Wars.The.Bad.Batch.S01E07.WEBRip.x264-ION10 Writing library : x264 core 148 r2795M aaa9aa8 Encoding settings : cabac=1 / ref=5 / deblock=1:1:1 / analyse=0x3:0x113 / me=umh / subme=9 / psy=1 / psy_rd=0.40:0.00 / mixed_ref=1 / me_range=16 / chroma_me=1 / trellis=2 / 8x8dct=1 / cqm=0 / deadzone=21,11 / fast_pskip=1 / chroma_qp_offset=-2 / threads=24 / lookahead_threads=2 / sliced_threads=0 / nr=0 / decimate=1 / interlaced=0 / bluray_compat=0 / constrained_intra=0 / bframes=5 / b_pyramid=2 / b_adapt=2 / b_bias=0 / direct=3 / weightb=1 / open_gop=0 / weightp=2 / keyint=250 / keyint_min=23 / scenecut=40 / intra_refresh=0 / rc_lookahead=50 / rc=abr / mbtree=1 / bitrate=1100 / ratetol=1.0 / qcomp=0.60 / qpmin=0 / qpmax=69 / qpstep=4 / ip_ratio=1.40 / aq=1:0.60 Encoded date : UTC 2021-06-11 08:52:35 Tagged date : UTC 2021-06-11 08:52:35 Codec configuration box : avcC Audio ID : 2 Format : AAC LC Format/Info : Advanced Audio Codec Low Complexity Codec ID : mp4a-40-2 Duration : 25 min 0 s Bit rate mode : Constant Bit rate : 256 kb/s Channel(s) : 2 channels Channel layout : L R Sampling rate : 48.0 kHz Frame rate : 46.875 FPS (1024 SPF) Compression mode : Lossy Stream size : 45.8 MiB (19%) Title : Star.Wars.The.Bad.Batch.S01E07.WEBRip.x264-ION10 Language : English Default : Yes Alternate group : 1 Encoded date : UTC 2021-06-11 08:52:35 Tagged date : UTC 2021-06-11 08:52:35 Star.Wars.The.Bad.Batch.S01E07.WEBRip.x264-ION10…
  • 인기 연관 검색어 :    Star    Stardust    Stargirl    Stars-355    Stardew    Stars    stars234    스타듀밸리Stardew    
  • 관련 자료:    9-1-1 Lone Star S01 COMPLETE 고화질 AMZN WEBRip x264-GalaxyTV ⭐    Young Rock S01E09 A Lady Named Star Search 초고화질 AMZN WEBRip DDP…
  • 같은 시각 자료:    Keeping.Up.With.the.Kardashians.S20E12.고화질.WEB.h264-BAE[TGx] ⭐    Clarice.S01E11.XviD-AFG[TGx] ⭐
무료 다운로드 링크 직접 다운로드 링크 무제한 다운로드 링크 초고속 다운로드 링크

Star.Wars.The.Bad.Batch.S01E07.WEBRip.x264-ION10

https://discord.gg/a4ee7bF and start your journey to find the Trove... good luck

Description:
https://www.imdb.com/title/tt12708542/

005a26880a670beff58b278ea9025195.md.jpg






Star.Wars.The.Bad.Batch.S01E07.WEBRip.x264-ION10

Upload provided by The Galactic Republic
Join us @ https://discord.gg/a4ee7bF and start your journey to find the Trove... good luck

Description:
https://www.imdb.com/title/tt12708542/

005a26880a670beff58b278ea9025195.md.jpg








MEDIA INFO:
General
Format : MPEG-4
Format profile : Base Media
Codec ID : isom (isom/iso2/avc1/mp41)
File size : 237 MiB
Duration : 25 min 0 s
Overall bit rate : 1 327 kb/s
Movie name : Star.Wars.The.Bad.Batch.S01E07.WEBRip.x264-ION10
Description : As they traverse a decommissioned medical facility, the Batch encounter an unexpected threat.
Encoded date : UTC 2021-06-11 08:52:35
Tagged date : UTC 2021-06-11 08:52:35
Writing application : Lavf58.0.101
Comment : Star.Wars.The.Bad.Batch.S01E07.WEBRip.x264-ION10

Video
ID : 1
Format : AVC
Format/Info : Advanced Video Codec
Format profile : [email protected]
Format settings : CABAC / 5 Ref Frames
Format settings, CABAC : Yes
Format settings, Reference frames : 5 frames
Codec ID : avc1
Codec ID/Info : Advanced Video Coding
Duration : 25 min 0 s
Bit rate : 1 100 kb/s
Width : 720 pixels
Height : 306 pixels
Display aspect ratio : 2.35:1
Frame rate mode : Constant
Frame rate : 23.976 (24000/1001) FPS
Color space : YUV
Chroma subsampling : 4:2:0
Bit depth : 8 bits
Scan type : Progressive
Bits/(Pixel*Frame) : 0.208
Stream size : 191 MiB (80%)
Title : Star.Wars.The.Bad.Batch.S01E07.WEBRip.x264-ION10
Writing library : x264 core 148 r2795M aaa9aa8
Encoding settings : cabac=1 / ref=5 / deblock=1:1:1 / analyse=0x3:0x113 / me=umh / subme=9 / psy=1 / psy_rd=0.40:0.00 / mixed_ref=1 / me_range=16 / chroma_me=1 / trellis=2 / 8x8dct=1 / cqm=0 / deadzone=21,11 / fast_pskip=1 / chroma_qp_offset=-2 / threads=24 / lookahead_threads=2 / sliced_threads=0 / nr=0 / decimate=1 / interlaced=0 / bluray_compat=0 / constrained_intra=0 / bframes=5 / b_pyramid=2 / b_adapt=2 / b_bias=0 / direct=3 / weightb=1 / open_gop=0 / weightp=2 / keyint=250 / keyint_min=23 / scenecut=40 / intra_refresh=0 / rc_lookahead=50 / rc=abr / mbtree=1 / bitrate=1100 / ratetol=1.0 / qcomp=0.60 / qpmin=0 / qpmax=69 / qpstep=4 / ip_ratio=1.40 / aq=1:0.60
Encoded date : UTC 2021-06-11 08:52:35
Tagged date : UTC 2021-06-11 08:52:35
Codec configuration box : avcC

Audio
ID : 2
Format : AAC LC
Format/Info : Advanced Audio Codec Low Complexity
Codec ID : mp4a-40-2
Duration : 25 min 0 s
Bit rate mode : Constant
Bit rate : 256 kb/s
Channel(s) : 2 channels
Channel layout : L R
Sampling rate : 48.0 kHz
Frame rate : 46.875 FPS (1024 SPF)
Compression mode : Lossy
Stream size : 45.8 MiB (19%)
Title : Star.Wars.The.Bad.Batch.S01E07.WEBRip.x264-ION10
Language : English
Default : Yes
Alternate group : 1
Encoded date : UTC 2021-06-11 08:52:35
Tagged date : UTC 2021-06-11 08:52:35

Star.Wars.The.Bad.Batch.S01E07.WEBRip.x264-ION10

번역하기: 한국 한국어


<< 이 게시판에서 관련된 자료 목록 >>
 [구글검색] 구글에서 더토렌트 검색 - 구글에서 토렌트를 검색하실 때에 검색어 뒤에 더토렌트를 꼭 붙여서 검색하세요.     더토렌트에서 광고중인 웹에 문제가 있다면 상단에 나와 있는 운영자 이메일로 연락 주십시오.     사용자님의 다운로드가 완료될 때까지 저희가 함께하겠습니다. 편안하고 즐거운 시간 되십시오.

웹하드 찐플

  

  

현재 인기있는 자료


외국티비 인기글


인기 검색어


실시간 검색어


3일의 인기글


새댓글


Facebook Twitter GooglePlus KakaoStory NaverBand