website statistics
Young.Wallander.S01.초고화질.NF.WEBRip.DDP5.1.x264-NTb > 외국티비 > 인터넷의 시작 더토렌트
홈 > 티비 > 외국티비
외국티비
 [구글검색] 구글에서 더토렌트 검색 - 구글에서 토렌트를 검색하실 때에 검색어 뒤에 더토렌트를 꼭 붙여서 검색하세요.     더토렌트에서 광고중인 웹에 문제가 있다면 상단에 나와 있는 운영자 이메일로 연락 주십시오.     사용자님의 다운로드가 완료될 때까지 저희가 함께하겠습니다. 편안하고 즐거운 시간 되십시오.

웹하드 파일마루

Young.Wallander.S01.초고화질.NF.WEBRip.DDP5.1.x264-NTb
  • 파일 설명:     Code:Video ID : 1 Format : AVC Format/Info : Advanced Video Codec Format profile : [email protected] Format settings : CABAC / 3 Ref Frames Format settings, CABAC : Yes Format settings, Reference frames : 3 frames Codec ID : V_MPEG4/ISO/AVC Duration : 50 min 22 s Bit rate mode : Variable Bit rate : 4 420 kb/s Maximum bit rate : 6 630 kb/s Width : 1 920 pixels Height : 1 080 pixels Display aspect ratio : 16:9 Frame rate mode : Constant Frame rate : 25.000 FPS Color space : YUV Chroma subsampling : 4:2:0 Bit depth : 8 bits Scan type : Progressive Bits/(Pixel*Frame) : 0.085 Stream size : 1.51 GiB (87%) Writing library : x264 core 148 r2722 1b0121b Encoding settings : cabac=1 / ref=3 / deblock=1:0:0 / analyse=0x1:0x111 / me=umh / subme=10 / psy=1 / psy_rd=1.00:0.00 / mixed_ref=1 / me_range=24 / chroma_me=1 / trellis=2 / 8x8dct=0 / cqm=0 / deadzone=21,11 / fast_pskip=1 / chroma_qp_offset=-2 / threads=8 / lookahead_threads=1 / sliced_threads=0 / nr=0 / decimate=1 / interlaced=0 / bluray_compat=0 / stitchable=1 / constrained_intra=0 / bframes=2 / b_pyramid=0 / b_adapt=2 / b_bias=0 / direct=3 / weightb=1 / open_gop=0 / weightp=2 / keyint=250 / keyint_min=25 / scenecut=0 / intra_refresh=0 / rc_lookahead=50 / rc=2pass / mbtree=1 / bitrate=4420 / ratetol=1.0 / qcomp=0.50 / qpmin=6 / qpmax=51 / qpstep=4 / cplxblur=20.0 / qblur=0.5 / vbv_maxrate=6630 / vbv_bufsize=8840 / nal_hrd=vbr / filler=0 / ip_ratio=1.40 / aq=1:1.00 Default : Yes Forced : No Audio ID : 2 Format : E-AC-3 Format/Info : Enhanced AC-3 Commercial name : Dolby Digital Plus Codec ID : A_EAC3 Duration : 50 min 22 s Bit rate mode : Constant Bit rate : 640 kb/s Channel(s) : 6 channels Channel layout : L R C LFE Ls Rs Sampling rate : 48.0 kHz Frame rate : 31.250 FPS (1536 SPF) Compression mode : Lossy Stream size : 231 MiB (13%) Language : English Service kind : Complete Main Default : Yes Forced : No Text #1 ID : 3 Format : UTF-8 Codec ID : S_TEXT/UTF8 Codec ID/Info : UTF-8 Plain Text Duration : 1 s 280 ms Bit rate : 37 b/s Count of elements : 1 Stream size : 6.00 Bytes (0%) Title : Forced Language : English Default : Yes Forced : Yes Text #2 ID : 4 Format : UTF-8 Codec ID : S_TEXT/UTF8 Codec ID/Info : UTF-8 Plain Text Duration : 49 min 34 s Bit rate : 70 b/s Count of elements : 795 Stream size : 25.6 KiB (0%) Title : SDH Language : English Default : No Forced : No Text #3 ID : 5 Format : UTF-8 Codec ID : S_TEXT/UTF8 Codec ID/Info : UTF-8 Plain Text Duration : 49 min 41 s Bit rate : 80 b/s Count of elements : 536 Stream size : 29.4 KiB (0%) Language : Arabic Default : No Forced : No Text #4 ID : 6 Format : UTF-8 Codec ID : S_TEXT/UTF8 Codec ID/Info : UTF-8 Plain Text Duration : 49 min 40 s Bit rate : 44 b/s Count of elements : 501 Stream size : 16.2 KiB (0%) Language : Czech Default : No Forced : No Text #5 ID : 7 Format : UTF-8 Codec ID : S_TEXT/UTF8 Codec ID/Info : UTF-8 Plain Text Duration : 49 min 41 s Bit rate : 43 b/s Count of elements : 485 Stream size : 15.8 KiB (0%) Language : Danish Default : No Forced : No Text #6 ID : 8 Format : UTF-8 Codec ID : S_TEXT/UTF8 Codec ID/Info : UTF-8 Plain Text Duration : 49 min 41 s Bit rate : 45 b/s Count of elements : 540 Stream size : 16.6 KiB (0%) Language : German Default : No Forced : No…
  • 인기 연관 검색어 :    Young    
  • 관련 자료:    Accident Suicide or Murder S02E11 Young Deadly Love 480p x264-m…    Younger S07E12 고화질 WEB x265-MiNX TGx ⭐
  • 같은 시각 자료:    Raised.by.Wolves.S01E01.WEBRip.x264-ION10    Raised.by.Wolves.S01E02.WEBRip.x264-ION10
무료 다운로드 링크 직접 다운로드 링크 무제한 다운로드 링크 초고속 다운로드 링크

Young.Wallander.S01.초고화질.NF.WEBRip.DDP5.1.x264-NTb


Code:

Video
ID : 1
Format : AVC
Format/Info : Advanced Video Codec
Format profile : [email protected]
Format settings : CABAC / 3 Ref Frames
Format settings, CABAC : Yes
Format settings, Reference frames : 3 frames
Codec ID : V_MPEG4/ISO/AVC
Duration : 50 min 22 s
Bit rate mode : Variable
Bit rate : 4 420 kb/s
Maximum bit rate : 6 630 kb/s
Width : 1 920 pixels
Height : 1 080 pixels
Display aspect ratio : 16:9
Frame rate mode : Constant
Frame rate : 25.000 FPS
Color space : YUV
Chroma subsampling : 4:2:0
Bit depth : 8 bits
Scan type : Progressive
Bits/(Pixel*Frame) : 0.085
Stream size : 1.51 GiB (87%)
Writing library : x264 core 148 r2722 1b0121b
Encoding settings : cabac=1 / ref=3 / deblock=1:0:0 / analyse=0x1:0x111 / me=umh / subme=10 / psy=1 / psy_rd=1.00:0.00 / mixed_ref=1 / me_range=24 / chroma_me=1 / trellis=2 / 8x8dct=0 / cqm=0 / deadzone=21,11 / fast_pskip=1 / chroma_qp_offset=-2 / threads=8 / lookahead_threads=1 / sliced_threads=0 / nr=0 / decimate=1 / interlaced=0 / bluray_compat=0 / stitchable=1 / constrained_intra=0 / bframes=2 / b_pyramid=0 / b_adapt=2 / b_bias=0 / direct=3 / weightb=1 / open_gop=0 / weightp=2 / keyint=250 / keyint_min=25 / scenecut=0 / intra_refresh=0 / rc_lookahead=50 / rc=2pass / mbtree=1 / bitrate=4420 / ratetol=1.0 / qcomp=0.50 / qpmin=6 / qpmax=51 / qpstep=4 / cplxblur=20.0 / qblur=0.5 / vbv_maxrate=6630 / vbv_bufsize=8840 / nal_hrd=vbr / filler=0 / ip_ratio=1.40 / aq=1:1.00
Default : Yes
Forced : No

Audio
ID : 2
Format : E-AC-3
Format/Info : Enhanced AC-3
Commercial name : Dolby Digital Plus
Codec ID : A_EAC3
Duration : 50 min 22 s
Bit rate mode : Constant
Bit rate : 640 kb/s
Channel(s) : 6 channels
Channel layout : L R C LFE Ls Rs
Sampling rate : 48.0 kHz
Frame rate : 31.250 FPS (1536 SPF)
Compression mode : Lossy
Stream size : 231 MiB (13%)
Language : English
Service kind : Complete Main
Default : Yes
Forced : No

Text #1
ID : 3
Format : UTF-8
Codec ID : S_TEXT/UTF8
Codec ID/Info : UTF-8 Plain Text
Duration : 1 s 280 ms
Bit rate : 37 b/s
Count of elements : 1
Stream size : 6.00 Bytes (0%)
Title : Forced
Language : English
Default : Yes
Forced : Yes

Text #2
ID : 4
Format : UTF-8
Codec ID : S_TEXT/UTF8
Codec ID/Info : UTF-8 Plain Text
Duration : 49 min 34 s
Bit rate : 70 b/s
Count of elements : 795
Stream size : 25.6 KiB (0%)
Title : SDH
Language : English
Default : No
Forced : No

Text #3
ID : 5
Format : UTF-8
Codec ID : S_TEXT/UTF8
Codec ID/Info : UTF-8 Plain Text
Duration : 49 min 41 s
Bit rate : 80 b/s
Count of elements : 536
Stream size : 29.4 KiB (0%)
Language : Arabic
Default : No
Forced : No

Text #4
ID : 6
Format : UTF-8
Codec ID : S_TEXT/UTF8
Codec ID/Info : UTF-8 Plain Text
Duration : 49 min 40 s
Bit rate : 44 b/s
Count of elements : 501
Stream size : 16.2 KiB (0%)
Language : Czech
Default : No
Forced : No

Text #5
ID : 7
Format : UTF-8
Codec ID : S_TEXT/UTF8
Codec ID/Info : UTF-8 Plain Text
Duration : 49 min 41 s
Bit rate : 43 b/s
Count of elements : 485
Stream size : 15.8 KiB (0%)
Language : Danish
Default : No
Forced : No

Text #6
ID : 8
Format : UTF-8
Codec ID : S_TEXT/UTF8
Codec ID/Info : UTF-8 Plain Text
Duration : 49 min 41 s
Bit rate : 45 b/s
Count of elements : 540
Stream size : 16.6 KiB (0%)
Language : German
Default : No
Forced : No




번역하기: 한국 한국어


<< 이 게시판에서 관련된 자료 목록 >>
 [구글검색] 구글에서 더토렌트 검색 - 구글에서 토렌트를 검색하실 때에 검색어 뒤에 더토렌트를 꼭 붙여서 검색하세요.     더토렌트에서 광고중인 웹에 문제가 있다면 상단에 나와 있는 운영자 이메일로 연락 주십시오.     사용자님의 다운로드가 완료될 때까지 저희가 함께하겠습니다. 편안하고 즐거운 시간 되십시오.

웹하드 파일마루

  

  

현재 인기있는 자료


외국티비 인기글


인기 검색어


실시간 검색어


3일의 인기글


새댓글


Facebook Twitter GooglePlus KakaoStory NaverBand